Goosebumps 2 Haunted Halloween (2018) x Torrent Free Download

Seeders : 791   &   Leechers : 530      11-01-2019 (5 days)
Goosebumps 2 Haunted Halloween (2018) x Torrent Download
Added: ago by PhunPsyz ***** in Movies   2.9 GB   Hits : 17
Info Hash: 75FC086B1D17EBBE463982C223B840EE7AA60936 Download
Goosebumps 2 Haunted Halloween (2018) x Torrent Download

Anonymous and Direct Download movies , software , shows...

Fast Safe Anonymous
movies, software, shows...

Torrent Description



www.imdb.com/title/tt5664636/

Two young friends find a magic book that brings a ventriloquist's dummy to life.

Source: FGT 4K HDR Remux







Format : Matroska
Format version : Version 4 / Version 2
File size : 2.93 GiB
Duration : 1 h 29 min
Overall bit rate : 4 675 kb/s

Video
ID : 1
Format : HEVC
Format/Info : High Efficiency Video Coding
Format profile : Main [email protected]@High
Codec ID : V_MPEGH/ISO/HEVC
Duration : 1 h 29 min
Bit rate : 4 262 kb/s
Width : 3 840 pixels
Height : 1 608 pixels
Display aspect ratio : 2.40:1
Frame rate mode : Constant
Frame rate : 23.976 (24000/1001) FPS
Color space : YUV
Chroma subsampling : 4:2:0
Bit depth : 10 bits
Bits/(Pixel*Frame) : 0.029
Stream size : 2.67 GiB (91%)
Writing library : x265 2.6:[Windows][GCC 7.3.0][64 bit] 10bit

Audio
ID : 2
Format : AC-3
Format/Info : Audio Coding 3
Commercial name : Dolby Digital
Codec ID : A_AC3
Duration : 1 h 29 min
Bit rate mode : Constant
Bit rate : 320 kb/s
Channel(s) : 6 channels
Channel layout : L R C LFE Ls Rs
Sampling rate : 48.0 kHz
Frame rate : 31.250 FPS (1536 SPF)
Bit depth : 16 bits
Compression mode : Lossy
Stream size : 206 MiB (7%)
Title : Surround
Language : English

Text
Language : English
Language : English
Language : English
Language : French
Language : Spanish
Language : French
Default : No
Forced : No




Sharing Widget


No Comments For This Torrent . Be The First to Comment

You must Login to Comment . Click Here to Login

Menu 1

Some content in menu 1.

Goosebumps 2 Haunted Halloween (2018) x 1608 (2160p) HDR 5 1 x265 10bi (Size: 2.9 GB)
  Goosebumps 2 Haunted Halloween (2018) x 1608 (2160p) HDR 5 1 x265 10bi 2.9 GB
tracker name
udp://tracker.leechers-paradise.org:6969/announce
udp://zer0day.ch:1337/announce
udp://open.demonii.com:1337/announce
udp://tracker.coppersurfer.tk:6969/announce
udp://exodus.desync.com:6969/announce
µTorrent compatible trackers list

Relative Torrents

Torrent Name Size Age SEED LEECH
The Undateables S10E02 HDTV x264-PLUTONiM [eztv]
Posted by    EZTVag   in   TV
341.3 MB 1 minute 341 201
The Hotel Inspector Returns S06E02 HDTV 264-PLUTONiUM [eztv]
Posted by    EZTVag   in   TV
268.8 MB 1 minute 329 582
Thomas Dolby 1992 Astronauts & Heretics CDV 2701}
Posted by    hades09   in   Music
272.2 MB 5 minutes 733 693
The Undateables S10E02 720p HDTV x264-PLTONiUM [eztv]
Posted by    EZTVag   in   TV
929.6 MB 6 minutes 87 965
Seth Meyers 2019 01 16 Jim Gaffigan 480px264-mSD [eztv]
Posted by    EZTVag   in   TV
148.4 MB 6 minutes 785 508